osu file format v14

[General]
AudioFilename: Rotterdam Cirno.mp3
AudioLeadIn: 1500
PreviewTime: 63590
Countdown: 0
SampleSet: Normal
StackLeniency: 0.7
Mode: 1
LetterboxInBreaks: 0
WidescreenStoryboard: 0

[Editor]
Bookmarks: 1190,10790,34790,44390,53990,65990,75590,104390
DistanceSpacing: 0.8
BeatDivisor: 4
GridSize: 8
TimelineZoom: 1

[Metadata]
Title:Rotterdam Cirno
TitleUnicode:Rotterdam Cirno
Artist:AU
ArtistUnicode:AU
Creator:OnosakiHito
Version:Futsuu
Source:Touhou
Tags:taiko no tatsujin rotter tarmination NicoNicoDouga jiiro jiro zun
BeatmapID:256259
BeatmapSetID:82259

[Difficulty]
HPDrainRate:5
CircleSize:3
OverallDifficulty:4
ApproachRate:5
SliderMultiplier:1.4
SliderTickRate:1

[Events]
//Background and Video events
0,0,"Taiko_BG.jpg",0,0
//Break Periods
//Storyboard Layer 0 (Background)
//Storyboard Layer 1 (Fail)
//Storyboard Layer 2 (Pass)
//Storyboard Layer 3 (Foreground)
//Storyboard Sound Samples
//Background Colour Transformations
3,100,163,162,255

[TimingPoints]
1190,300,4,1,0,100,1,0
75590,-100,4,1,0,100,0,1
104390,-100,4,1,0,100,0,0

[HitObjects]
256,192,1190,1,0,0:0:0:0:
256,192,1490,1,0,0:0:0:0:
256,192,1940,1,0,0:0:0:0:
256,192,2090,1,0,0:0:0:0:
256,192,2390,1,0,0:0:0:0:
256,192,2690,1,0,0:0:0:0:
256,192,2990,5,8,0:0:0:0:
256,192,3140,1,8,0:0:0:0:
256,192,3290,1,8,0:0:0:0:
256,192,3590,5,0,0:0:0:0:
256,192,3890,1,0,0:0:0:0:
256,192,4340,1,0,0:0:0:0:
256,192,4490,1,0,0:0:0:0:
256,192,4790,1,0,0:0:0:0:
256,192,4940,1,0,0:0:0:0:
256,192,5090,1,0,0:0:0:0:
256,192,5240,5,8,0:0:0:0:
256,192,5540,1,8,0:0:0:0:
256,192,5690,1,8,0:0:0:0:
256,192,5840,1,8,0:0:0:0:
256,192,5990,5,0,0:0:0:0:
256,192,6290,1,0,0:0:0:0:
256,192,6590,5,8,0:0:0:0:
256,192,6890,1,8,0:0:0:0:
256,192,7190,5,0,0:0:0:0:
256,192,7790,5,8,0:0:0:0:
256,192,7940,1,8,0:0:0:0:
256,192,8090,1,8,0:0:0:0:
256,192,8390,5,0,0:0:0:0:
256,192,8990,1,0,0:0:0:0:
256,192,9590,1,0,0:0:0:0:
256,192,9890,1,0,0:0:0:0:
256,192,10190,5,8,0:0:0:0:
256,192,10790,5,0,0:0:0:0:
256,192,11090,1,0,0:0:0:0:
256,192,11390,1,0,0:0:0:0:
256,192,11690,1,0,0:0:0:0:
256,192,11840,1,0,0:0:0:0:
256,192,12290,1,0,0:0:0:0:
256,192,12590,1,0,0:0:0:0:
256,192,13190,1,0,0:0:0:0:
256,192,13490,1,0,0:0:0:0:
256,192,13790,1,0,0:0:0:0:
256,192,14090,1,0,0:0:0:0:
256,192,14240,1,0,0:0:0:0:
256,192,14690,1,0,0:0:0:0:
256,192,14990,1,0,0:0:0:0:
256,192,15290,5,8,0:0:0:0:
256,192,15590,5,0,0:0:0:0:
256,192,15740,1,0,0:0:0:0:
256,192,15890,1,0,0:0:0:0:
256,192,16040,1,0,0:0:0:0:
256,192,16490,5,8,0:0:0:0:
256,192,16790,5,0,0:0:0:0:
256,192,16940,1,0,0:0:0:0:
256,192,17090,1,0,0:0:0:0:
256,192,17240,1,0,0:0:0:0:
256,192,17690,5,8,0:0:0:0:
256,192,17990,5,0,0:0:0:0:
256,192,18290,1,0,0:0:0:0:
256,192,18590,1,0,0:0:0:0:
256,192,19190,5,8,0:0:0:0:
256,192,19340,5,8,0:0:0:0:
256,192,19640,1,0,0:0:0:0:
256,192,19940,1,8,0:0:0:0:
256,192,20090,5,8,0:0:0:0:
256,192,20390,5,0,0:0:0:0:
256,192,20990,5,8,0:0:0:0:
256,192,21290,5,0,0:0:0:0:
256,192,21590,5,8,0:0:0:0:
256,192,21740,1,8,0:0:0:0:
256,192,22040,5,0,0:0:0:0:
256,192,22490,5,8,0:0:0:0:
256,192,22790,5,0,0:0:0:0:
256,192,23390,1,0,0:0:0:0:
256,192,23990,1,0,0:0:0:0:
256,192,24290,1,0,0:0:0:0:
256,192,24590,5,8,0:0:0:0:
256,192,24740,1,8,0:0:0:0:
256,192,24890,1,8,0:0:0:0:
256,192,25040,1,8,0:0:0:0:
256,192,25190,5,0,0:0:0:0:
256,192,25490,5,8,0:0:0:0:
256,192,25790,5,0,0:0:0:0:
256,192,26090,5,8,0:0:0:0:
256,192,26390,5,0,0:0:0:0:
256,192,26990,1,8,0:0:0:0:
256,192,27290,1,8,0:0:0:0:
256,192,27590,5,0,0:0:0:0:
256,192,27890,5,8,0:0:0:0:
256,192,28190,5,0,0:0:0:0:
256,192,28490,5,8,0:0:0:0:
256,192,28790,5,0,0:0:0:0:
256,192,29390,5,8,0:0:0:0:
256,192,29690,1,8,0:0:0:0:
256,192,29990,5,0,0:0:0:0:
256,192,30590,5,8,0:0:0:0:
256,192,30890,1,8,0:0:0:0:
256,192,31190,5,0,0:0:0:0:
256,192,31490,1,0,0:0:0:0:
256,192,31790,5,8,0:0:0:0:
256,192,32390,5,0,0:0:0:0:
256,192,32690,1,0,0:0:0:0:
256,192,32990,5,8,0:0:0:0:
256,192,33290,1,8,0:0:0:0:
256,192,33590,5,0,0:0:0:0:
256,192,33740,1,0,0:0:0:0:
256,192,33890,1,0,0:0:0:0:
256,192,34190,5,8,0:0:0:0:
256,192,34790,5,0,0:0:0:0:
256,192,35240,1,0,0:0:0:0:
256,192,35390,1,0,0:0:0:0:
256,192,35840,1,0,0:0:0:0:
256,192,35990,1,0,0:0:0:0:
256,192,36890,1,0,0:0:0:0:
256,192,37190,1,0,0:0:0:0:
256,192,37640,1,0,0:0:0:0:
256,192,37790,1,0,0:0:0:0:
256,192,38240,1,0,0:0:0:0:
256,192,38390,1,0,0:0:0:0:
256,192,38840,1,0,0:0:0:0:
256,192,39140,1,0,0:0:0:0:
256,192,39290,1,0,0:0:0:0:
256,192,39590,1,0,0:0:0:0:
256,192,40040,1,0,0:0:0:0:
256,192,40190,1,0,0:0:0:0:
256,192,40640,1,0,0:0:0:0:
256,192,40790,1,0,0:0:0:0:
256,192,41690,1,0,0:0:0:0:
256,192,41990,1,0,0:0:0:0:
256,192,42440,1,0,0:0:0:0:
256,192,42590,1,0,0:0:0:0:
256,192,42890,1,0,0:0:0:0:
256,192,43190,1,0,0:0:0:0:
256,192,43490,1,0,0:0:0:0:
256,192,43640,1,0,0:0:0:0:
256,192,43940,1,0,0:0:0:0:
256,192,44090,1,0,0:0:0:0:
256,192,44390,1,0,0:0:0:0:
256,192,44690,5,8,0:0:0:0:
256,192,44990,5,0,0:0:0:0:
256,192,45290,5,8,0:0:0:0:
256,192,45590,5,0,0:0:0:0:
256,192,45890,5,8,0:0:0:0:
256,192,46490,1,8,0:0:0:0:
256,192,46790,5,0,0:0:0:0:
256,192,47090,5,8,0:0:0:0:
256,192,47390,5,0,0:0:0:0:
256,192,47690,5,8,0:0:0:0:
256,192,47990,5,0,0:0:0:0:
256,192,48290,5,8,0:0:0:0:
256,192,48890,1,8,0:0:0:0:
256,192,49190,5,0,0:0:0:0:
256,192,49490,5,8,0:0:0:0:
256,192,49790,5,0,0:0:0:0:
256,192,50090,5,8,0:0:0:0:
256,192,50390,5,0,0:0:0:0:
256,192,50690,5,8,0:0:0:0:
256,192,51290,1,8,0:0:0:0:
256,192,51590,5,0,0:0:0:0:
256,192,51890,5,8,0:0:0:0:
256,192,52190,5,0,0:0:0:0:
256,192,52490,5,8,0:0:0:0:
256,192,52790,5,4,0:0:0:0:
256,192,53990,1,0,0:0:0:0:
256,192,54290,1,0,0:0:0:0:
256,192,54740,5,8,0:0:0:0:
256,192,54890,1,8,0:0:0:0:
256,192,55190,5,0,0:0:0:0:
256,192,55490,1,0,0:0:0:0:
256,192,55940,5,8,0:0:0:0:
256,192,56090,1,8,0:0:0:0:
256,192,56390,5,0,0:0:0:0:
256,192,56690,1,0,0:0:0:0:
256,192,57140,5,8,0:0:0:0:
256,192,57290,1,8,0:0:0:0:
256,192,57590,5,0,0:0:0:0:
256,192,57890,1,0,0:0:0:0:
256,192,58340,5,8,0:0:0:0:
256,192,58490,1,8,0:0:0:0:
256,192,58790,5,0,0:0:0:0:
256,192,59390,1,0,0:0:0:0:
256,192,59990,1,0,0:0:0:0:
256,192,60590,1,0,0:0:0:0:
256,192,61190,5,8,0:0:0:0:
256,192,61490,1,8,0:0:0:0:
256,192,61790,1,8,0:0:0:0:
256,192,62090,1,8,0:0:0:0:
256,192,62390,6,0,L|112:192,4,140,,,0:0:0:0:
256,192,64790,5,12,0:0:0:0:
256,192,65090,1,12,0:0:0:0:
256,192,65390,1,12,0:0:0:0:
256,192,65690,1,12,0:0:0:0:
256,192,65990,5,0,0:0:0:0:
256,192,66140,1,0,0:0:0:0:
256,192,66290,1,0,0:0:0:0:
256,192,66590,5,8,0:0:0:0:
256,192,66890,5,8,0:0:0:0:
256,192,67190,5,0,0:0:0:0:
256,192,67340,1,0,0:0:0:0:
256,192,67490,1,0,0:0:0:0:
256,192,67640,1,0,0:0:0:0:
256,192,67790,1,0,0:0:0:0:
256,192,68390,5,8,0:0:0:0:
256,192,68540,1,8,0:0:0:0:
256,192,68690,1,8,0:0:0:0:
256,192,68990,5,0,0:0:0:0:
256,192,69290,1,0,0:0:0:0:
256,192,69590,5,8,0:0:0:0:
256,192,69740,1,8,0:0:0:0:
256,192,69890,1,8,0:0:0:0:
256,192,70040,1,8,0:0:0:0:
256,192,70190,1,8,0:0:0:0:
256,192,70790,5,0,0:0:0:0:
256,192,71090,5,8,0:0:0:0:
256,192,71390,5,0,0:0:0:0:
256,192,71540,1,0,0:0:0:0:
256,192,71690,5,8,0:0:0:0:
256,192,71990,5,0,0:0:0:0:
256,192,72590,5,8,0:0:0:0:
256,192,73190,5,0,0:0:0:0:
256,192,73490,5,8,0:0:0:0:
256,192,73640,1,8,0:0:0:0:
256,192,73790,5,0,0:0:0:0:
256,192,74090,5,8,0:0:0:0:
256,192,74390,5,0,0:0:0:0:
256,192,74990,1,12,0:0:0:0:
256,192,75590,5,0,0:0:0:0:
256,192,75890,1,0,0:0:0:0:
256,192,76190,5,8,0:0:0:0:
256,192,76490,1,8,0:0:0:0:
256,192,76790,5,0,0:0:0:0:
256,192,77090,1,0,0:0:0:0:
256,192,77390,1,0,0:0:0:0:
256,192,77990,5,8,0:0:0:0:
256,192,78290,1,8,0:0:0:0:
256,192,78590,5,0,0:0:0:0:
256,192,78890,1,0,0:0:0:0:
256,192,79190,5,8,0:0:0:0:
256,192,79490,1,8,0:0:0:0:
256,192,79790,1,8,0:0:0:0:
256,192,80390,5,4,0:0:0:0:
256,192,80990,5,12,0:0:0:0:
256,192,81590,5,0,0:0:0:0:
256,192,81690,1,0,0:0:0:0:
256,192,81790,1,0,0:0:0:0:
256,192,81890,1,0,0:0:0:0:
256,192,82190,5,8,0:0:0:0:
256,192,82290,1,8,0:0:0:0:
256,192,82390,1,8,0:0:0:0:
256,192,82490,1,8,0:0:0:0:
256,192,82790,5,4,0:0:0:0:
256,192,83390,5,12,0:0:0:0:
256,192,83990,5,0,0:0:0:0:
256,192,84290,1,0,0:0:0:0:
256,192,84590,5,12,0:0:0:0:
256,192,85190,5,0,0:0:0:0:
256,192,85490,1,0,0:0:0:0:
256,192,85790,5,8,0:0:0:0:
256,192,86090,1,8,0:0:0:0:
256,192,86390,5,0,0:0:0:0:
256,192,86690,1,0,0:0:0:0:
256,192,86990,1,0,0:0:0:0:
256,192,87590,5,8,0:0:0:0:
256,192,87890,1,8,0:0:0:0:
256,192,88190,5,0,0:0:0:0:
256,192,88490,1,0,0:0:0:0:
256,192,88790,5,8,0:0:0:0:
256,192,89090,1,8,0:0:0:0:
256,192,89390,1,8,0:0:0:0:
256,192,89990,5,0,0:0:0:0:
256,192,90290,1,0,0:0:0:0:
256,192,90590,1,0,0:0:0:0:
256,192,91190,5,8,0:0:0:0:
256,192,91490,1,8,0:0:0:0:
256,192,91790,1,8,0:0:0:0:
256,192,92390,5,0,0:0:0:0:
256,192,92490,1,0,0:0:0:0:
256,192,92590,1,0,0:0:0:0:
256,192,92690,1,0,0:0:0:0:
256,192,92990,5,8,0:0:0:0:
256,192,93090,1,8,0:0:0:0:
256,192,93190,1,8,0:0:0:0:
256,192,93290,1,8,0:0:0:0:
256,192,93590,5,0,0:0:0:0:
256,192,94190,5,12,0:0:0:0:
256,192,94790,5,4,0:0:0:0:
256,192,95390,1,4,0:0:0:0:
256,192,95990,5,8,0:0:0:0:
256,192,96290,1,8,0:0:0:0:
256,192,96590,1,8,0:0:0:0:
256,192,96890,1,8,0:0:0:0:
256,192,97190,5,4,0:0:0:0:
256,192,97790,1,4,0:0:0:0:
256,192,98390,5,8,0:0:0:0:
256,192,98690,1,8,0:0:0:0:
256,192,98990,1,8,0:0:0:0:
256,192,99590,5,4,0:0:0:0:
256,192,100190,1,4,0:0:0:0:
256,192,100790,5,8,0:0:0:0:
256,192,101090,1,8,0:0:0:0:
256,192,101390,1,8,0:0:0:0:
256,192,101990,5,0,0:0:0:0:
256,192,102090,1,0,0:0:0:0:
256,192,102190,1,0,0:0:0:0:
256,192,102290,1,0,0:0:0:0:
256,192,102590,5,8,0:0:0:0:
256,192,102690,1,8,0:0:0:0:
256,192,102790,1,8,0:0:0:0:
256,192,102890,1,8,0:0:0:0:
256,192,103190,1,12,0:0:0:0:
256,192,103490,1,12,0:0:0:0:
256,192,103790,5,4,0:0:0:0:
